영화

죽여주는 여자 The.Bacchus.Lady.2016.720p.HDRip.x264.AAC.HORiZON-ArtSubs >…

<- 추천 한번씩 클릭해주시면 오늘하루 좋은일이 생기실 꺼에요.

첨부파일

The.Bacchus.Lady.2016.720p.HDRip.x264.AAC.HORiZON-ArtSubs.mkv
파일The.Bacchus.Lady.2016.720p.HDRip.x264.AAC.HORiZON-ArtSubs.mkv (1.83 GB)
마그넷magnet:?xt=urn:btih:C92270927D1B1146555D88E34079E4BDD1CD67B4
트래커

본문

죽여주는 여자 The.Bacchus.Lady.2016.720p.HDRip.x264.AAC.HORiZON-ArtSubs > 최신영화 3 페이지 > 토렌트야


Subtitle: English 

“나랑 연애하고 갈래요? 잘 해 드릴게”

종로 일대에서 노인들을 상대하며 근근이 살아가는 65세의 ‘박카스 할머니’ 소영. 노인들 사이에서는 ‘죽여주게 잘 하는’ 여자로 입 소문을 얻으며 박카스들 중에서 가장 인기가 높다. 트랜스젠더인 집주인 티나, 장애를 가진 가난한 성인 피규어 작가 도훈, 성병 치료 차 들른 병원에서 만나 무작정 데려온 코피노 소년 민호 등 이웃들과 함께 힘들지만 평화로운 나날을 보내던 중, 한 때 자신의 단골 고객이자, 뇌졸중으로 쓰러진 송노인으로부터 자신을 죽여달라는 간절한 부탁을 받고 죄책감과 연민 사이에서 갈등하다 그를 진짜 죽여주게 된다. 그 일을 계기로 사는 게 힘들어 죽고 싶은 고객들의 부탁이 이어지고, 소영은 더 깊은 혼란 속에 빠지게 된다.


Complete name : The.Bacchus.Lady.2016.720p.HDRip.x264.AAC.HORiZON-ArtSubs 
Format : Matroska 
Format version : Version 4 / Version 2 
File size : 1.83 GiB 
Duration : 1 h 51 min 
Overall bit rate : 2 358 kb/s 
Encoded date : UTC 2017-11-25 20:54:56 
Writing application : mkvmerge v17.0.0 (Be Ur Friend) 64-bit 
Writing library : libebml v1.3.5 + libmatroska v1.4.8 

Video 
ID : 1 
Format : AVC 
Format/Info : Advanced Video Codec 
Format profile : [email protected] 
Format settings, CABAC : Yes 
Format settings, ReFrames : 4 frames 
Codec ID : V_MPEG4/ISO/AVC 
Duration : 1 h 51 min 
Bit rate : 2 100 kb/s 
Width : 1 280 pixels 
Height : 670 pixels 
Display aspect ratio : 1.910 
Frame rate mode : Constant 
Frame rate : 29.970 (30000/1001) FPS 
Color space : YUV 
Chroma subsampling : 4:2:0 
Bit depth : 8 bits 
Scan type : Progressive 
Bits/(Pixel*Frame) : 0.082 
Stream size : 1.63 GiB (89%) 
Writing library : x264 core 148 r2708 86b7198 
Default : Yes 
Forced : No 

Audio 
ID : 2 
Format : AAC 
Format/Info : Advanced Audio Codec 
Format profile : LC 
Codec ID : A_AAC 
Duration : 1 h 51 min 
Bit rate : 256 kb/s 
Channel(s) : 2 channels 
Channel positions : Front: L R 
Sampling rate : 44.1 kHz 
Frame rate : 43.066 FPS (1024 spf) 
Compression mode : Lossy 
Stream size : 204 MiB (11%) 
Title : Stereo 
Language : Korean 
Default : Yes 
Forced : No 



SCREENSHOTS: 




Facebook Twitter GooglePlus KakaoStory NaverBand