영화

살인자의 기억법 Memoir.of.a.Murderer.2017.720p.HDRip.x264.AAC.HORiZON-ArtSubs…

<- 추천 한번씩 클릭해주시면 오늘하루 좋은일이 생기실 꺼에요.

첨부파일

Memoir.of.a.Murderer.2017.720p.HDRip.x264.AAC.HORiZON-ArtSubs.mkv
파일Memoir.of.a.Murderer.2017.720p.HDRip.x264.AAC.HORiZON-ArtSubs.mkv (2.08 GB)
마그넷magnet:?xt=urn:btih:6E40B50931CAD5A03B32CC2022E794DDAA129005
트래커

본문

살인자의 기억법 Memoir.of.a.Murderer.2017.720p.HDRip.x264.AAC.HORiZON-ArtSubs > 최신영화 3 페이지 > 토렌트야



예전에는 연쇄살인범이었지만 지금은 알츠하이머에 걸린 병수. 우연히 접촉사고로 만나게 된 남자 태주에게서 자신과 같은 눈빛을 발견하고 그 역시 살인자임을 직감한다. 
 병수는 경찰에 그를 연쇄살인범으로 신고하지만 태주가 그 경찰이었고, 아무도 병수의 말을 믿지 않는다.
 태주는 은희 곁을 맴돌며 계속 병수의 주변을 떠나지 않고, 병수는 혼자 태주를 잡기 위해 필사적으로 기록하고 쫓지만 기억은 자꾸 끊기고, 오히려 살인 습관들이 되살아나며 병수는 망상과 실제 사이에서 혼란스러워진다. 
 
 다시 시작된 연쇄 살인사건, 놈의 짓이 맞을까! 
 
 네 기억은 믿지 마라! 
 그 놈은 살인자다!

Subtitle: English 

Complete name : Memoir.of.a.Murderer.2017.720p.HDRip.x264.AAC.HORiZON-ArtSubs.mkv 
Format : Matroska 
Format version : Version 4 / Version 2 
File size : 2.08 GiB 
Duration : 1 h 58 min 
Overall bit rate : 2 522 kb/s 
Encoded date : UTC 2017-11-20 22:00:10 
Writing application : mkvmerge v17.0.0 (Be Ur Friend) 64-bit 
Writing library : libebml v1.3.5 + libmatroska v1.4.8 

Video 
ID : 1 
Format : AVC 
Format/Info : Advanced Video Codec 
Format profile : [email protected] 
Format settings, CABAC : Yes 
Format settings, ReFrames : 4 frames 
Codec ID : V_MPEG4/ISO/AVC 
Duration : 1 h 58 min 
Bit rate : 2 200 kb/s 
Width : 1 280 pixels 
Height : 536 pixels 
Display aspect ratio : 2.40:1 
Frame rate mode : Constant 
Frame rate : 23.976 (24000/1001) FPS 
Color space : YUV 
Chroma subsampling : 4:2:0 
Bit depth : 8 bits 
Scan type : Progressive 
Bits/(Pixel*Frame) : 0.134 
Stream size : 1.82 GiB (87%) 
Writing library : x264 core 148 r2708 86b7198 
Encoding settings : cabac=1 / ref=3 / deblock=1:-2:-2 / analyse=0x3:0x113 / me=hex / subme=7 / psy=1 / psy_rd=1.00:0.25 / mixed_ref=1 / me_range=16 / chroma_me=1 / trellis=1 / 8x8dct=1 / cqm=0 / deadzone=6,6 / fast_pskip=1 / chroma_qp_offset=-4 / threads=3 / lookahead_threads=1 / sliced_threads=0 / nr=0 / decimate=0 / interlaced=0 / bluray_compat=0 / constrained_intra=0 / bframes=3 / b_pyramid=2 / b_adapt=1 / b_bias=0 / direct=1 / weightb=1 / open_gop=0 / weightp=2 / keyint=240 / keyint_min=24 / scenecut=40 / intra_refresh=0 / rc_lookahead=40 / rc=2pass / mbtree=1 / bitrate=2200 / ratetol=1.0 / qcomp=0.80 / qpmin=0 / qpmax=69 / qpstep=4 / cplxblur=20.0 / qblur=0.5 / vbv_maxrate=62500 / vbv_bufsize=78125 / nal_hrd=none / filler=0 / ip_ratio=1.10 / aq=1:0.50 
Default : Yes 
Forced : No 
Color range : Limited 
Color primaries : BT.709 
Transfer characteristics : BT.709 
Matrix coefficients : BT.709 

Audio 
ID : 2 
Format : AAC 
Format/Info : Advanced Audio Codec 
Format profile : LC 
Codec ID : A_AAC 
Duration : 1 h 58 min 
Bit rate : 320 kb/s 
Channel(s) : 2 channels 
Channel positions : Front: L R 
Sampling rate : 48.0 kHz 
Frame rate : 46.875 FPS (1024 spf) 
Compression mode : Lossy 
Stream size : 271 MiB (13%) 
Title : Stereo 
Language : Korean 
Default : Yes 
Forced : No 



SCREENSHOTS: 





 
Facebook Twitter GooglePlus KakaoStory NaverBand